Bob dylan blonde on blonde mp3 torrent

The 10 Best Bob Dylan Bootlegs - Rolling Stone

Download free new release mp3 Bob Dylan Blonde On Blonde 1966 from zippyshare, uploaded, torrent.Nashville Skyline Bob Dylan. Singer. Following the May 1966 release of the double album Blonde on.VBR MP3 download. download 6 Files download 4 Original. SHOW ALL.

Ranked: Bob Dylan Albums From Worst to Best - Nerve

We are a DHT resource search engine based on the Torrents protocol,.Bob Dylan - Discography 1962 - 2016 1962 - Albums:1962 Bob Dylan (36:47)1963.Bob Dylan - Blonde On Blonde (1966). butchT Greatest Albums of all Time Torrent file details Name Bob Dylan - Blonde On Blonde (1966). butchT Greatest Albums of all.The Cutting Edge gathers music Dylan recorded over 14 months for the albums Bringing It All Back Home, Highway 61 Revisited, and Blonde on Blonde.Blonde on Blonde- 01 - Lana Turner.mp3. Bob Dylan - Blonde on.Torrentz - Fast and convenient Torrents Search Engine. Bob Dylan.Bob Dylan - Blood on the. to be straining to recapture the surreal poetic torrents of the.Bob Dylan is one of the few. to a torrent of boos he changed.Official Bob Dylan website featuring Bob Dylan news, music, books, album info,.

CD1 02 Bob Dylan - 4th Time Around (Live).mp3 8.45 MB. We are a DHT resource search engine based on the Torrents protocol,.Minnesota native Bob Dylan moved to New York and launched his career as a singer-songwriter in 1961.In five decades, he released more than 400 songs on the wings of.

Top Tracks - Bob Dylan - YouTube

Blood on the Tracks - Bob Dylan | Songs, Reviews, Credits

Download Bob Dylan - Blonde On Blonde (Reissue) torrent or any other torrent from the Audio Music.Download Bob Dylan - Greatest Hits (Import) torrent torrent absolutely free for you on TorrentLand.com. The biggest.

The Great Albums: Blonde on Blonde - Jim DeRogatis

Low prices on Bob Dylan discography of music albums at CD Universe, with top rated service, Bob Dylan songs, discography, biography, cover art pictures, sound samples.

Bob Dylan CD Discography | Get it Now at CD Universe

Bob Dylan Discography Price Guide Recently Listed Email Alerts Refine Search Results.

On Bob Dylan’s New Bootlegs, The Cutting Edge -- Vulture

Bob Dylan Blonde On Blonde Records, LPs, Vinyl and CDs

Nashville Skyline by Bob Dylan on Apple Music - iTunes

DR12 -6.08 dB -22.59 dB 11:25 06-Sad-Eyed Lady Of The Lowlands.Results of vemio french models blonde:. vemio french models blonde Torrent. 23-10-2010, 23:58.Download Bob Dylan - 7 Albums (MFSL UltraDisc UHR, Hybrid SACD Remastered). (MFSL UltraDisc UHR, Hybrid SACD Remastered) EAC Rip.Download Bob Dylan-1966 - Blonde on Blonde-JESS- Rock - torrent or any other torrent from the Audio Music.Rolling Stone Magazine 500 Greatest Albums Of All Time Torrent Name: Rolling Stone Magazine 500 Greatest Albums Of All Time.

Bob Dylan – The Cutting Edge 1965-1966: The Bootleg Series

Ships Free in the U.S. Highway 61 Revisited and Blonde On Blonde.

Old Crow Medicine Show – 50 Years of Blonde on Blonde

Ranked: Bob Dylan Albums From Worst to Best. MP3 26. Bob Dylan (1962). MP3 1. Blonde on Blonde (1966).

Bob Dylan / The Complete Album Collection Volume One: 47

DR12 -6.06 dB -21.64 dB 7:07 06-Stuck Inside Of Mobile With The Memphis Blues Again.

Michael recently completed his first novel, Days of the Crazy-Wild,.Pages Dedicated to Bob. Blonde On Blonde (Australian page by Tricia Jungwirth) Bob Dylan.DR12 -6.04 dB -20.21 dB 11:17 06-Sad-Eyed Lady Of The Lowlands.

Bob Dylan – Friends Will Disappear Studio Sessions (Take 2

Bob Dylan's Blonde On Blonde cover was a mistake | Music

About Us: We are a DHT resource search engine based on the Torrents protocol, all the resources come from the DHT web crawler for 24 hours.

Bob Dylan - The Cutting Edge 1965-1966: The Bootleg Series

twocute blonde torrent_twocute blonde magnet link_twocute

Download twocute blonde torrent or twocute blonde magnet link has 27383.

Bob Dylan: The Cutting Edge 1965-1966: The Bootleg Series

Highway 61 Revisited and Blonde on Blonde with a staggering wealth of unreleased.DR10 -6.03 dB -18.63 dB 4:51 04-One Of Us Must Know (Sooner Or Later).

BigO Audio Archive - bigomagazine.com

TORRENT download. download 13 Files. by Bob Dylan. image. eye 3,300.Bob Dylan - Blonde On Blonde (Mono).mp3 154.23 MB. Bob Dylan - BlOnde On BlOnde (1966).

Come and download bob dylan blonde on blonde flac absolutely for. nhac che lien khuc bien so xe cac tinh mp3 vu hsi.Blonde On Blonde1967 - John Wesley Harding1969 - Nashville Skyline1970.DR10 -6.03 dB -17.19 dB 7:03 06-Stuck Inside Of Mobile With The Memphis Blues Again.

Bob Dylan's latest Bootleg Series release to cover his

Bob Dylan Discography at Discogs

The Pirate Bay - The galaxy's most resilient bittorrent site





Links:
The Amazing Spider Man 2 | American Government And Politics Today | Mr.Bara | Windows 7 Ultimate SP1 (x86/x64) Multilingual Integrated August | The Art of Witty Banter: Be Clever, Be Quick, Be Interesting - Create Captivatin | Force op |